#TITLE:PARANOiA SUCK;
#SUBTITLE:-sloppy mix-;
#ARTIST:Your father's brother's nephew's cousin's former roommate;
#TITLETRANSLIT:;
#SUBTITLETRANSLIT:;
#ARTISTTRANSLIT:;
#CREDIT:;
#BANNER:suckbanner.PNG;
#BACKGROUND:parasuck.PNG;
#LYRICSPATH:;
#CDTITLE:DJS CD.png;
#MUSIC:paraSUCK.ogg;
#OFFSET:-0.051;
#SAMPLESTART:30.072;
#SAMPLELENGTH:12.000;
#SELECTABLE:YES;
#BPMS:0.000=200.000;
#STOPS:;
#BGCHANGES:;
// cache tags:
#FIRSTBEAT:0.000;
#LASTBEAT:284.000;
#SONGFILENAME:Songs/Music V.I.P ^_^/Paranoia SUCK/paraSUCK.sm;
#HASMUSIC:1;
#HASBANNER:1;
#MUSICLENGTH:85.292;
// end cache tags

//---------------dance-single - ----------------
#NOTES:
     dance-single:
     :
     Hard:
     1:
     1.000,1.000,1.000,0.023,0.610,611.000,150.000,2.000,0.000,0.000:
1000
0100
1000
0100
1000
0000
0000
0000
0001
0010
0001
0010
0001
0100
0001
0100
,
0001
0010
0001
0010
0001
0100
0001
0100
0001
0000
0000
0000
0001
1000
0001
1000
,
0001
0010
0100
1000
0001
0010
0100
0010
,
0001
0010
0100
1000
0100
0010
0001
1000
,
0100
0010
0001
0010
0100
1000
0010
0100
,
0010
1000
0100
1000
0100
0010
0100
0010
,
0001
0010
0001
0010
0100
1000
0001
0010
,
0100
1000
0100
0010
0001
0010
0100
1000
,
0010
0100
0001
0010
0100
1000
0010
0100
,
0001
0010
0100
1000
0010
0100
0001
0010
0100
1000
0100
0010
0001
0010
0100
1000
,
0001
0010
0001
0000
0010
0000
0100
0000
1000
0000
1000
0000
0001
0010
0001
0010
,
0001
0010
0100
1000
0001
0000
0100
0000
0010
0000
1000
0000
0010
0100
0010
0000
,
0001
1000
0001
0000
0100
0000
0010
0000
1000
0100
1000
0000
0010
0001
0010
0000
,
1000
0000
0010
0000
0100
0000
0001
0000
0010
0000
0100
1000
0100
0000
0010
0000
,
0001
0000
1000
0100
0010
0001
0010
0100
1000
0100
0010
0100
1000
0000
0100
0000
,
0010
0001
0100
0010
1000
0001
0010
0100
,
0001
0010
0001
0000
0100
0010
0100
0000
0001
0010
0001
0000
0001
0000
0010
0000
,
1000
0100
0010
0000
0001
0000
0010
0000
0100
1000
0100
0000
0010
0000
0001
0000
,
0011
0100
0011
0100
1010
0101
0010
1000
,
0110
0001
0100
1010
0001
0100
0011
1000
,
0110
1000
0011
0100
1010
0110
0001
1100
,
0010
0101
1000
0010
0101
0010
1010
0100
,
1010
0001
1100
0110
0001
1010
0100
0011
,
1000
0100
0011
1010
0110
0011
0101
1000
,
0110
0101
1000
0010
0101
0010
0001
1100
,
0011
0110
1010
0110
0101
1010
0110
0101
,
1100
0000
0110
0110
,
0000
1001
1001
0011
,
0011
0000
1010
0101
,
0110
0000
1001
0000
0001
0010
0100
1000
,
0100
0010
0100
1000
0100
0010
0001
0010
,
0100
0010
0001
0010
0100
1000
0010
0100
,
0001
0010
0100
1000
0010
0100
0010
1000
,
0100
1000
0010
0100
0010
0001
0010
0100
,
1000
0001
0010
0100
0010
0001
0010
0100
,
1000
0100
0010
0001
1000
0100
0010
0100
,
1000
0100
0010
0001
0010
0100
0010
0001
,
0010
0100
1000
0010
1100
0000
0110
0000
,
0011
0000
1010
0110
0101
0000
0000
1001
,
0000
0011
1010
0110
0101
0000
0011
0000
,
0110
0000
0101
1010
0110
0000
0000
0101
,
0000
1100
1010
1100
1010
0000
0011
0000
,
0110
0000
0011
0101
0110
0000
0000
1001
,
0000
0000
0011
0101
1010
0000
0011
0000
,
0101
0000
1010
0110
0101
0000
0000
0101
,
0000
0000
0000
0000
1010
0000
0000
0000
0001
0010
0100
0010
0001
0010
0100
1000
,
0001
0010
0100
0010
0001
0010
0100
1000
0100
0010
0100
1000
0100
0010
0001
0010
,
0100
1000
0001
0010
0100
1000
0001
0010
0100
1000
0100
0010
0100
1000
0100
0010
,
0001
0010
0001
0010
0001
0100
0001
0100
0001
1000
0001
1000
0001
0010
0001
0010
,
0001
0010
0100
1000
0001
0010
0100
1000
0001
0010
0100
1000
0001
0010
0100
1000
,
0001
0010
0100
1000
0010
0100
0001
0010
0100
1000
0100
0010
0001
0100
0010
1000
,
0100
0010
0001
0010
0100
1000
0001
0010
0100
1000
0010
0100
0001
0010
0100
1000
,
0100
0010
0001
0010
0100
1000
0001
0010
0001
0010
0001
0100
0001
0100
0001
1000
,
0001
1000
0001
0010
0100
1000
0010
0100
0011
0000
0011
0000
0101
0000
0101
0000
,
1001
1001
0011
0011
0101
0101
1010
1010
,
0110
0110
1010
1010
1001
1001
1100
1100
,
0110
0110
0101
0101
1010
1010
0110
0110
,
1001
1001
0101
0101
0110
0110
1010
1010
,
1100
1100
1001
1001
0101
0101
0011
0011
,
0101
0101
1010
1010
0110
0110
1001
1001
,
0101
0101
0110
0110
1010
1010
0101
0101
,
1010
1010
0110
0110
0001
0010
0100
1000
,
0001
0010
0100
0010
0001
0010
0100
1000
,
0100
0010
0100
1000
0001
0100
0001
0010
,
1000
0100
0001
0010
1000
0010
0100
0010
,
0001
1000
0100
0010
0100
1000
0001
0010
,
0100
0010
0001
1000
0100
1000
0010
0100
,
0010
0001
0100
0001
0010
0100
0010
1000
,
0100
0001
0010
0100
1000
0001
1000
0010
,
2002
0000
0000
0000
,
0000
0000
0000
0000
,
3003
0000
0000
0000
;
